<?xml version="1.0" standalone="no"?>
<!DOCTYPE svg PUBLIC "-//W3C//DTD SVG 1.1//EN" "http://www.w3.org/Graphics/SVG/1.1/DTD/svg11.dtd">
<svg xmlns="http://www.w3.org/2000/svg">
<metadata>Generated by Fontastic.me</metadata>
<defs>
<font id="gli" horiz-adv-x="512">
<font-face font-family="gli" units-per-em="512" ascent="480" descent="-32"/>
<missing-glyph horiz-adv-x="512" />

<glyph glyph-name="icon-application" unicode="&#97;" d="M101 423l117 0c7 0 12-5 12-12l0-117c0-6-5-11-12-11l-117 0c-6 0-12 5-12 11l0 117c0 6 6 12 12 12z m193 0l117 0c7 0 12-5 12-12l0-117c0-6-5-11-12-11l-117 0c-6 0-11 5-11 11l0 117c-1 6 4 12 11 12z m-193-193l117 0c7 0 12-5 12-12l0-117c0-6-5-12-12-12l-117 0c-6 0-12 6-12 12l0 117c0 7 6 12 12 12z m193 0l117 0c7 0 12-5 12-12l0-117c0-6-5-12-12-12l-117 0c-6 0-11 6-11 12l0 117c-1 7 4 12 11 12z"/>
<glyph glyph-name="icon-cable" unicode="&#98;" d="M420 343l-57 0 0 77c0 10-7 18-18 18l-180 0c-10 0-18-8-18-18l0-77-57 0c-12 0-19-10-19-20l0-237c0-11 9-20 19-20l330 0c11 0 18 10 18 20l0 237c1 11-8 20-18 20z m-235-20l0 80 141 0 0-80c0-11 9-21 19-21l56 0 0-199-291 0 0 200 55 0c11-1 20 9 20 20z"/>
<glyph glyph-name="icon-client" unicode="&#99;" d="M303 214l-2 20c28 20 48 57 48 100 0 15-3 29-7 42-13 42-47 71-86 71-39 0-72-29-86-71-4-13-6-28-6-42 0-43 19-81 48-100l-3-20c-42-9-144-77-144-102 0 0 0 0 0-1 0-26 30-47 67-47l249 0c37 0 67 21 67 47l0 1c1 25-101 93-145 102z"/>
<glyph glyph-name="icon-lock" unicode="&#101;" d="M370 274l0 43c0 66-48 120-114 120-66 0-114-54-114-120l0-43c-24-1-31-13-31-28l0-142c0-16 15-29 30-29l238 0c16 0 22 14 22 29l0 142c0 15-7 28-31 28z m-114 106c35 0 56-28 56-63l0-43-112 0 0 43c0 35 21 63 56 63z"/>
<glyph glyph-name="icon-phone" unicode="&#102;" d="M402 0l-293 0c-9 0-17 8-17 17l0 478c0 9 8 17 17 17l294 0c9 0 17-8 17-17l0-478c0-9-8-17-18-17z m-275 34l259 0 0 444-259 0z m191 390l-118 0c-10 0-17 7-17 17 0 10 7 17 17 17l118 0c9 0 17-7 17-17 0-10-8-17-17-17z m-61-375c-21 0-39 18-39 39 0 22 18 40 39 40 22 0 40-18 40-40-1-21-18-39-40-39z"/>
<glyph glyph-name="icon-setting" unicode="&#103;" d="M448 203l-20 12c-9 5-17 19-17 30l0 21c0 11 9 25 17 31l20 12c15 9 19 28 10 43l-21 34c-9 14-28 19-43 10l-18-11c-8-5-24-5-33 0l-19 11c-10 6-17 19-17 30l0 21c0 18-14 32-32 32l-39 0c-17 0-31-14-31-32l0-21c0-10-8-25-17-29l-19-12c-9-5-25-5-34 1l-18 10c-6 4-15 6-23 4-8-2-15-7-19-14l-21-34c-9-14-4-34 10-42l20-13c9-5 17-19 17-30l0-22c0-10-8-24-17-30l-20-12c-15-9-19-28-10-43l21-34c4-7 11-12 19-14 8-2 17 0 23 4l18 11c9 5 25 5 34 0l19-11c9-6 17-19 17-30l0-21c0-18 14-32 31-32l40 0c17 0 31 14 31 32l0 21c0 10 8 25 17 29l19 12c9 5 25 5 34-1l18-10c6-4 15-6 23-4 8 2 15 7 19 14l21 34c9 14 5 34-10 43z m-192-16c-38 0-68 31-68 69 0 38 30 68 68 68 38 0 68-31 68-68 0-39-30-69-68-69z"/>
<glyph glyph-name="icon-usb-moderm" unicode="&#105;" d="M375 389l-23 0 0 105c0 9-8 18-17 18l-155 0c-9 0-20-9-20-18l0-105-20 0c-9 0-17-6-17-15l0-248c0-70 58-126 128-126l13 0c70 0 125 56 125 126l0 248c0 9-5 15-14 15z m-145-174c-8-6-19-9-33-9-11 0-22 3-30 9-9 6-13 15-12 27l0 1 28 0c0-11 1-8 4-11 2-3 6-4 10-4 5 0 10 1 13 4 3 3 5 7 5 11 0 6-2 10-5 13-3 2-7 4-13 4l-9 0 0 17 9 0c5 0 9 3 12 6 3 3 4 8 4 13 0 4-1 7-4 10-3 3-7 5-11 5-4 0-7-4-10-6-2-3-4-5-4-11l-27 0 0 3c-1 10 3 19 11 25 8 6 18 10 30 10 13 0 24-3 32-9 8-6 12-15 12-26 0-6-2-11-5-15-4-5-8-9-14-11 6-3 12-6 15-11 4-5 6-11 6-18-1-12-5-20-14-27z m-35 174l0 89 122 0 0-89z m163-165c-6-5-11-9-19-13-8-4-18-6-31-6-15 0-26 5-36 14-9 10-13 22-13 37l0 26c0 14 3 27 13 36 9 10 20 14 35 14 15 0 27-3 35-10 8-8 11-20 11-32l0-4-27 0c0 7-2 14-5 17-3 3-8 6-15 6-6 0-11-2-15-8-4-5-5-11-5-19l0-26c0-9 1-15 5-21 4-5 9-8 17-8 5 0 11 1 14 2 3 0 8 2 8 3l0 21-27 0 0 17 55 0 0-46z m-136 233l24 0 0-30-24 0z m48 0l24 0 0-30-24 0z"/>
<glyph glyph-name="icon-wifi-full" unicode="&#106;" d="M505 348c-67 66-155 103-249 103-94 0-182-37-249-103-9-8-9-23-1-32 9-8 24-9 33 0 58 57 135 89 217 89 82 0 159-32 217-89 5-5 10-7 16-7 6 0 12 3 17 7 8 9 8 24-1 32z m-249 9c-69 0-134-27-183-75-9-9-9-23 0-32 9-9 23-9 32 0 40 40 94 62 151 62 57 0 111-22 151-62 5-5 10-7 16-7 6 0 12 3 17 7 9 9 8 24-1 32-49 49-114 75-183 75z m0-92c-44 0-86-17-118-47-9-9-9-23-1-32 9-10 23-10 32-1 24 23 54 35 87 35 32 0 63-12 86-35 4-4 10-6 16-6 6 0 12 2 16 6 9 10 9 24-1 32-31 31-73 48-117 48z m0-123c-23 0-42-18-42-41 0-23 19-42 42-42 23 0 41 19 41 42 0 23-18 41-41 41z"/>
<glyph glyph-name="icon-wifi-medium" unicode="&#107;" d="M256 268c-44 0-87-17-119-49-9-8-10-23-1-32 9-10 24-10 33-1 24 23 55 35 87 35 33 0 64-12 88-35 4-4 10-6 16-6 6 0 12 2 16 7 9 9 9 24 0 32-32 32-75 49-120 49z m0-125c-23 0-42-19-42-42 0-23 19-42 42-42 24 0 42 19 42 42 0 23-19 42-42 42z m234 187c-1 0-2 0-3 1-128 129-337 129-467 0-1-1-4-1-6 0-1 2-1 5 0 7 65 64 150 99 240 99 91 0 176-36 240-100 2-1 2-4 0-6-1-1-2-1-4-1z m-54-62c-1 0-2 0-3 1-99 99-259 99-358 0-1-1-4-1-6 0-2 2-2 5 0 7 102 102 268 102 370 0 2-2 2-5 0-7 0 0-1-1-3-1z"/>
<glyph glyph-name="icon-wifi-no" unicode="&#108;" d="M256 42c-2 0-4 1-6 2l-247 247c-2 2-3 4-3 7 0 2 1 4 3 6 139 140 367 140 506 0 4-4 4-9 0-13l-247-247c-2-2-4-2-6-2z m-234 256l234-235 234 235c-131 124-337 124-468 0z"/>
<glyph glyph-name="icon-wifi-strong" unicode="&#109;" d="M256 357c-69 0-134-27-183-75-9-9-9-23 0-32 9-9 23-9 32 0 40 40 94 62 151 62 57 0 111-22 151-62 5-5 10-7 16-7 6 0 12 3 17 7 9 9 8 24-1 32-49 49-114 75-183 75z m0-89c-44 0-87-17-119-49-9-8-10-23-1-32 9-10 24-10 33-1 24 23 55 35 87 35 33 0 64-12 88-35 4-4 10-6 16-6 6 0 12 2 16 7 9 9 9 24 0 32-32 32-75 49-120 49z m0-125c-23 0-42-19-42-42 0-23 19-42 42-42 24 0 42 19 42 42 0 23-19 42-42 42z m240 187c-1 0-2 0-3 1-130 130-342 130-472 0-2-1-5-1-6 0-2 2-2 5 0 7 65 64 151 100 242 100 92 0 178-36 242-100 2-2 2-5 0-7 0-1-1-1-3-1z"/>
<glyph glyph-name="icon-wifi-weak" unicode="&#110;" d="M256 143c-23 0-42-19-42-42 0-23 19-42 42-42 24 0 42 19 42 42 0 23-19 42-42 42z m240 187c-1 0-2 0-3 1-130 130-342 130-472 0-2-1-5-1-6 0-2 2-2 5 0 7 65 64 151 100 242 100 92 0 178-36 242-100 2-2 2-5 0-7 0-1-1-1-3-1z m-65-66c-1 0-2 0-3 1-95 95-249 95-344 0-1-2-4-2-6 0-2 2-2 4 0 6 98 98 258 98 357 0 1-2 1-4 0-6-1-1-2-1-4-1z m-64-63c-1 0-2 0-3 1-59 58-153 58-211 0-2-1-5-1-6 0-2 2-2 5 0 7 61 61 161 61 222 0 2-2 2-5 0-7 0-1-1-1-2-1z"/>
<glyph glyph-name="icon-wlan" unicode="&#111;" d="M255 409c-82 0-160-33-219-90-11-11-11-28 0-39 10-10 27-11 38 0 49 48 113 74 181 74 69 0 133-26 182-74 5-6 12-8 19-8 7 0 14 3 19 8 11 11 11 29 0 39-59 58-137 90-220 90z m0-110c-53 0-103-21-141-57-11-11-11-28-1-39 11-11 28-11 39-1 28 27 64 42 103 42 39 0 76-15 104-42 6-4 12-7 19-7 7 0 14 2 20 8 10 11 10 28-1 38-39 37-89 58-142 58z m0-125c-27 0-50-22-50-49 0-27 23-50 50-50 27 0 49 23 49 50 0 27-22 49-49 49z"/>
<glyph glyph-name="icon-upgrade" unicode="&#100;" d="M256 461c-113 0-205-92-205-205 0-113 92-205 205-205 113 0 205 92 205 205 0 113-92 205-205 205z m46-200l0-108-92 0 0 108-65 0 111 112 111-112z"/>
<glyph glyph-name="icon-share" unicode="&#113;" d="M365 210c-19 0-36-7-49-17l-91 51c1 4 1 8 1 12 0 4 0 8-1 12l91 51c13-10 30-17 49-17 43 0 79 36 79 80 0 43-35 79-79 79-43 0-79-35-79-79 0-4 0-8 1-12l-91-52c-13 11-30 17-49 17-43 0-79-35-79-79 0-44 35-79 79-79 19 0 36 6 49 17l91-52c-1-4-1-8-1-12 0-43 35-79 79-79 43 0 79 35 79 79 0 44-36 80-79 80z"/>
<glyph glyph-name="icon-internet" unicode="&#104;" d="M321 111c0 1 0 2 1 3l1 3c0 1 0 2 1 3 1 1 1 2 1 3l1 3c1 1 1 2 1 3 1 1 1 2 1 3l1 4c1 1 1 2 1 3 1 1 1 2 1 3l1 3c0 1 1 2 1 3 0 1 0 3 0 4l1 3c1 1 1 2 1 3 0 1 1 2 1 3l0 4c0 0 0 0 0 0-8 4-15 10-20 18-54-25-98-68-125-123 21-6 42-9 64-9 9 0 18 0 27 1l4 5c0 1 1 2 2 3 1 1 2 2 3 3l1 2c1 1 2 2 3 3 0 1 1 2 2 3l1 2c1 1 2 2 3 3 0 1 1 2 2 3l1 2c0 1 1 3 2 4 1 1 1 2 2 3l1 2c1 1 2 2 2 3 1 1 1 3 2 4l1 2c1 1 1 2 2 3 0 1 1 2 2 3l1 3c0 1 1 2 2 3z m101 266l-4 1c-24 10-50 16-76 18-3 0-7 0-11 0l-3 0c-3 0-6 0-10 0l-1 0c-1-6-3-12-7-18 2-2 3-4 5-6l1-2c0-1 1-2 2-2 2-3 5-7 6-10l1-1c2-4 5-7 7-12 0-1 0-2 1-2l0-2c2-3 3-5 5-8 0-1 1-3 1-4l1-1c1-3 2-5 3-7 1-2 1-3 2-4l0-1c1-3 2-5 3-7 1-2 1-4 2-6l0 0c1-2 2-5 3-7 0-2 1-4 1-6 1-2 2-5 2-7 1-2 1-4 2-6 1-2 1-5 2-7 0-2 0-4 1-6 0-3 0-5 1-8l0-1c0-1 0-3 0-4 0-1 0-1 0-1 14-3 26-11 33-23 20 2 41 2 63-1 1 10 2 20 2 30 1 45-13 87-38 121z m-118-175c-2 0-3 0-5 1-1 0-3 0-4 0l-3 1c-2 0-5 1-7 2-2 0-3 1-4 1l-3 1c-3 0-5 1-7 2-2 0-3 0-5 1l-2 1c-3 1-5 2-7 2-2 1-4 1-5 2l-1 1c-3 0-6 2-8 3-2 0-3 2-6 3-3 1-5 2-7 3-2 1-4 2-6 3-2 1-5 2-7 4-2 1-4 2-6 3-2 1-4 3-6 4-2 1-4 3-6 4-2 2-4 3-6 5-3 1-4 3-6 4-2 1-4 3-6 5-2 1-4 2-6 4-2 2-3 3-6 5-1 2-3 3-5 5-2 2-4 4-6 6l0 0c-2 2-3 3-4 4 0 0 0 0-1 1-6-3-12-5-19-5-6 0-11 1-16 3l-1-2c-1-1-2-3-3-5 0-1 0-2-1-3l0-1c-1-2-2-3-3-5 0-1-1-2-2-3l0-1c-1-2-2-3-3-5 0-1-1-2-2-3l0-1c-1-1-2-3-2-5-1-1-1-3-2-4-1-1-2-3-2-5 0-1-1-2-2-4 0-2-1-3-2-5 0-2 0-3-2-4 0-2-1-3-1-6-1-1-1-2-1-4-1-2-1-3-2-5l0 0c0-1-1-3-1-4 0-2 0-4-1-6l0-2c0-1 0-2-1-3 0-2 0-4-1-6l0-2c0 0 0-1 0-2-1-3-1-5-1-7l0-1c0-1 0-1 0-2-1-3-1-6-1-10 0-3 0-6 0-8l0-4c21-37 53-66 91-84 27 59 74 106 132 133z m-131 93c1-2 3-4 5-6 2-1 3-3 5-4 2-1 3-3 5-4 2-2 3-3 5-4 2-2 4-3 6-5 2-1 3-3 5-4 2-1 4-2 6-4l1 0c2-1 3-2 5-3 2-1 4-3 6-4l1 0c1-1 3-2 4-3 2-1 4-2 6-3l2-1c2-1 3-2 4-3 2 0 4-2 6-2l2-1c1-1 3-1 4-2 2-1 4-2 6-3l3-1c1 0 3-1 4-1 2-1 4-2 6-3l3 0c1-1 2-1 3-1 3-1 5-1 7-2l3-1c1 0 2 0 3 0 3-1 5-1 7-2l4-1c1 0 2 0 3 0 2-1 6-1 8-1l3-1c1 0 1 0 2 0 5 11 14 19 25 23-1 2-1 4-1 5 0 3-1 5-1 7 0 1-1 3-1 5 0 3-1 4-2 7 0 2 0 3-1 5 0 3-1 4-2 7l0 0c-1 2-1 3-2 5-1 2-2 4-2 7l-1 1c0 1 0 2-1 3-1 3-2 4-3 7l-1 2c0 1 0 2-1 3 0 2-2 4-3 6l-1 3c0 0-1 1-1 2-2 3-3 6-4 9l-1 1c0 0 0 0 0 2-2 3-4 6-7 10 0 1 0 1-1 2l0 1c-2 3-3 5-5 8-1 1-1 2-2 2l-1 2c-1 1-2 3-3 4-6-3-13-5-20-5-17 0-30 8-38 21-1 0-3-1-3-1l-1 0c-1-1-1-1-2-1-3-1-5-2-7-3l-2-1c-3-1-6-3-8-4l-3-1c-2-1-4-2-6-3-1-1-1-1-2-1l-1-1c-2-1-3-2-5-3-1-1-2-1-2-2l-1 0c-2-1-3-2-5-3-1-1-2-1-3-2l0-1c-2-1-3-2-4-3-1 0-3-2-3-2-2-1-3-3-4-3 3-6 5-13 5-21 0-9-3-17-8-25 1-3 2-4 3-4z m-90-27c1 2 2 3 3 5 1 2 2 3 2 5 1 2 2 3 3 5 1 2 2 3 3 4 1 2 2 3 3 5 0 1 1 2 2 3-6 7-10 17-10 28 0 13 5 24 14 32-1 1-1 3-2 4l0 1c-1 1-1 2-1 2-1 3-2 5-3 7l0 1c-1 0-1 1-1 2-1 2-2 4-3 7-25-35-41-77-41-123 0-20 3-40 9-58 0 1 0 2 0 3 1 1 1 2 1 3l0 3c1 2 1 3 1 5 1 1 1 2 1 3l1 2c0 2 1 4 1 6 0 1 1 2 1 3l0 1c1 2 1 4 2 6 1 1 1 2 1 3l1 1c0 2 1 4 2 6 0 1 1 3 1 4l1 0c0 3 1 4 2 6 1 2 1 3 2 4 1 2 2 4 3 6 0 2 1 3 1 5z m318-63c0-23-18-42-40-44 0 0 0 0 0-1l-1-2c0-1 0-3-1-5 0-1 0-2 0-3l-1-2c0-2 0-4-1-5 0-1 0-3-1-4l0-1c0-2-1-4-2-6 0-1-1-3-1-4-1-2-1-4-2-6-1-2-1-3-2-5-1-1-2-3-3-5 0-1-1-3-2-4 0-2-1-4-2-6-1-1-2-3-2-4-1-2-2-4-3-6 0-1-1-3-2-4-1-2-2-3-3-5-1-2-2-3-2-4-1-2-2-3-3-5-1-2-2-3-3-4 0-2-2-3-2-4l-1-1c-1-1-2-3-3-4 0 0 0 0 0-1 67 21 118 75 136 143-11 2-21 2-32 2-6 0-13 0-21 0z m-287 184c0 0 0-1 0-2l1-1c0-2 1-3 2-5 0-1 0-2 1-3 0-2 1-4 2-5 0-1 0-3 1-3 0-1 1-3 2-4 3 1 6 1 9 1 9 0 18-2 25-7 0 1 0 1 1 1 1 2 3 3 5 4l3 2c2 2 4 3 6 5l2 1c2 2 5 3 8 5l2 2c2 1 4 2 6 4 1 0 3 1 3 1 2 1 4 3 6 3 1 1 2 1 3 2 2 1 4 3 6 3l3 1c3 2 5 3 8 4l2 1c3 1 5 2 7 2 0 1 0 1 0 1 0 7 1 13 3 18 0 1-1 1-1 1-2 1-4 3-6 3l0 1c-1 0-2 1-3 1-2 1-4 3-6 3l-1 1c-1 0-1 1-2 1-2 1-5 2-7 4l-2 1c-3 1-6 2-9 4l-2 0c-3 1-5 2-8 3-1 1-1 1-2 1l-3 1c-27-11-51-27-70-47l1-4c2-1 3-3 4-5z m104 65c2 0 4-1 5-2 1-1 3-2 4-2l1-1c2-1 3-2 5-3 1-1 3-2 4-3l0 0c2-1 4-2 5-3 1-1 3-2 4-2 7 5 16 8 26 8 19 0 35-11 42-27l0 0c4 0 7 0 11 0 3 0 4 0 6 0l4 0c3 0 6 0 8 0 6-1 10-1 15-2 1 0 2 0 3 0l3-1c3 0 6 0 9-1 1-1 3-1 4-1l3-1c3 0 5-1 7-1 1 0 1 0 1-1-35 31-81 50-131 50-15 0-29-2-42-4 0-1 1-1 2-1z"/>
<glyph glyph-name="icon-cloud" unicode="&#112;" d="M344 354c-21 36-63 60-109 60-70 0-127-54-127-120-42-13-74-51-74-96l1 0c0-55 47-100 105-100l193 0c2 0 4 0 5 0 2 0 4 0 6 0 74 0 135 58 135 129-1 70-61 127-135 127z"/>
<glyph glyph-name="icon-cam" unicode="&#114;" d="M414 393l-44 0-54 50-119 0-55-50-44 0c-25 0-45-21-45-45l0-235c0-24 20-44 45-44l316 0c24 0 45 19 45 44l0 235c0 25-21 45-45 45z m-158-267c-58 0-105 47-105 105 0 57 47 104 105 104 57 0 104-47 104-104 0-58-47-105-104-105z m0 162c-32 0-58-26-58-57 0-32 26-58 58-58 31 0 57 26 57 58 1 31-25 57-57 57z"/>
<glyph glyph-name="icon-vpn" unicode="&#115;" d="M400 410c-51 0-98 7-137 20-5 1-9 1-14 0-39-12-87-20-138-20-3 0-8 0-12 0-11 1-21-8-22-19-1-11-2-24-2-36 0-125 72-231 172-272 5-3 11-3 17 0 101 41 172 148 172 272 0 13 0 25-2 37-1 11-11 19-22 19-4 0-8-1-12-1z"/>
<glyph glyph-name="icon-add" unicode="&#116;" d="M209 68l0 140-141 0 0 96 141 0 0 140 94 0 0-140 141 0 0-96-141 0 0-140z"/>
<glyph glyph-name="icon-show-off" unicode="&#117;" d="M505 265c-33 38-73 68-118 88l36 35-33 33-51-51c-27 7-55 11-83 11-97 0-187-42-249-115l-7-9 7-9c33-38 73-68 118-87l-37-36 33-33 53 52c26-7 54-11 82-11 97 0 188 42 249 115l7 9z m-249 79c16 0 31-5 44-12l-26-25c-6 2-13 3-20 3-31 0-56-24-56-54 0-7 1-14 3-20l-23-23c-8 13-12 28-12 44 1 48 41 87 90 87z m-215-87c35 37 78 64 126 79-20-21-31-49-31-79 0-25 7-47 20-66l-8-7c-40 16-77 40-107 73z m215-88c-16 0-31 5-44 12l24 23c6-2 12-3 18-3 31 0 56 24 56 54 0 6-1 13-3 18l26 26c8-12 12-27 12-43 0-48-40-87-89-87z m89 8c20 21 31 49 31 80 0 24-7 46-20 65l8 8c40-16 77-41 107-73-35-38-78-65-126-80z"/>
<glyph glyph-name="icon-show-on" unicode="&#118;" d="M505 265c-62 76-153 119-249 119-96 0-187-43-249-119l-7-9 7-9c62-75 152-119 249-119 97 0 187 43 249 119l7 9z m-249-99c-49 0-89 41-89 90 0 50 40 90 89 90 49 0 89-41 89-90 0-50-40-90-89-90z m-2 146c-30 0-56-26-56-57 0-31 26-57 56-57 31 0 56 26 56 57 0 31-25 57-56 57z"/>
<glyph glyph-name="laptop" unicode="&#120;" d="M101 146c-13 0-24 5-33 14-9 9-13 19-13 32l0 201c0 13 4 23 13 32 9 9 20 14 33 14l310 0c13 0 24-5 33-14 9-9 13-19 13-32l0-201c0-13-4-23-13-32-9-9-20-14-33-14z m-10 247l0-201c0-2 1-5 3-6 2-2 4-3 7-3l310 0c3 0 5 1 7 3 2 1 3 4 3 6l0 201c0 3-1 5-3 7-2 1-4 2-7 2l-310 0c-3 0-5-1-7-2-2-2-3-4-3-7z m394-265l45 0 0-27c0-8-4-15-13-20-9-5-20-8-32-8l-458 0c-12 0-23 3-32 8-9 5-13 12-13 20l0 27z m-206-27c3 0 4 1 4 4 0 3-1 5-4 5l-46 0c-3 0-4-2-4-5 0-3 1-4 4-4z"/>
<glyph glyph-name="icon-client-lan" unicode="&#65;" d="M161 262c0 2 1 4 2 6l-69 70 80 81c8 7 8 19 0 26-7 7-19 7-26 0l-94-94c-7-7-7-19 0-26l94-95c2-2 4-3 7-4 0 13 2 24 6 36z m293 63c7 7 7 19 0 26l-95 94c-7 8-19 8-26 0-7-7-7-19 0-26l81-81-70-70c1-2 2-4 2-6 4-11 6-23 6-35 3 1 5 2 7 4z m-258-74c-3-9-5-19-5-29 0-29 13-54 33-67l-2-13c-28-6-97-52-97-69 0 0 0 0 0 0 0-18 20-32 45-32l168 0c25 0 45 14 45 32l0 0c0 17-68 63-97 69l-2 13c19 13 32 39 32 67 0 10-1 20-4 29-9 28-32 48-58 48-26 0-49-20-58-48z m10 87c0-12-10-22-22-22-12 0-22 10-22 22 0 12 10 22 22 22 12 0 22-10 22-22z m48-22c11 0 19 7 21 17 1 2 1 3 1 5 0 12-10 22-22 22-12 0-22-10-22-22 0-2 0-3 0-5 2-10 11-17 22-17z m92 22c0-12-10-22-22-22-13 0-23 10-23 22 0 12 10 22 23 22 12 0 22-10 22-22z"/>
<glyph glyph-name="icon-client-wifi" unicode="&#66;" d="M503 337c-66 65-154 101-247 101-92 0-180-36-246-101-9-9-10-23-1-32 9-9 23-9 32 0 58 56 134 88 215 88 82 0 158-32 215-89 5-4 11-6 16-6 6 0 12 2 17 7 8 9 8 23-1 32z m-247 8c-68 0-132-26-181-74-9-9-9-23 0-31 9-9 23-10 31-1 24 23 51 40 81 50 17 22 42 35 68 35 25 0 49-13 66-34 32-9 61-27 85-51 5-4 10-6 16-6 6 0 12 2 17 7 8 8 8 23-1 31-49 48-113 74-182 74z m82-166c1-2 2-3 3-4 5-4 11-7 16-7 6 0 12 3 16 7 9 9 9 23 0 32-9 8-18 16-28 22 0-3 0-6 0-10 0-14-3-28-7-40z m-173 48c-9-5-18-12-26-20-9-9-9-23 0-32 8-9 22-9 31 0 1 0 2 1 2 2-5 13-7 27-7 42 0 3 0 6 0 8z m33 20c-3-8-4-18-4-28 0-28 13-53 31-65l-1-14c-29-6-96-51-96-67 0-1 0-1 0-1 0-17 20-31 44-31l166 0c24 0 44 14 44 31l0 1c0 16-67 61-96 67l-2 14c19 13 32 37 32 65 0 10-2 20-4 28-9 28-31 48-57 48-26 0-48-20-57-48z"/>
</font>
</defs>
</svg>
